Tracklist:

01. China In Her Eyes (Album Version)
02. Don’t Take Away My Heart
03. It’s Your Smile
04. Cosmic Girl
05. After Your Love Is Gone
06. Girl Out Of My Dreams
07. My Lonely Girl
08. No Face No Name No Number
09. Can’t Let you Go
10. Part Time Lover
11. Time Is On My Side
12. I’ll Never Fall In Love Again
13. Avec Toi
14. I’m Not Guilty
15. Fight For The Right Love
16. Walking In The Rain Of Paris
17. Fly To The Moon
18. Love Is Forever
19. China In Her Eyes (feat. Eric Singleton)

Log:

Exact Audio Copy V0.99 prebeta 5 from 4. May 2009

Îò÷¸ò EAC îá èçâëå÷åíèè, âûïîëíåííîì 13. èþíÿ 2009, 4:06

Modern Talking / Year Of The Dragon (The 9th Album)

Äèñêîâîä: ASUS DRW-2014S1T Adapter: 4 ID: 0

Ðåæèì ÷òåíèÿ : Äîñòîâåðíîñòü
Èñïîëüçîâàíèå òî÷íîãî ïîòîêà : Äà
Îòêëþ÷åíèå êýøà àóäèî : Äà
Èñïîëüçîâàíèå óêàçàòåëåé C2 : Íåò

Êîððåêöèÿ ñìåùåíèÿ ïðè ÷òåíèè : 6
Ñïîñîáíîñòü ÷èòàòü îáëàñòè Lead-in è Lead-out : Íåò
Çàïîëíåíèå ïðîïóùåííûõ ñýìïëîâ òèøèíîé : Äà
Óäàëåíèå áëîêîâ ñ òèøèíîé â íà÷àëå è êîíöå : Íåò
Ïðè âû÷èñëåíèÿõ CRC èñïîëüçîâàëèñü íóëåâûå ñýìïëû : Äà
Èíòåðôåéñ : Óñòàíîâëåííûé âíåøíèé ASPI-èíòåðôåéñ

Âûõîäíîé ôîðìàò : Âíóòðåííèå WAV-îïåðàöèè
Ôîðìàò ñýìïëîâ : 44.100 Ãö; 16 áèò; ñòåðåî

TOC èçâëå÷¸ííîãî CD

Òðåê | Ñòàðò | Äëèòåëüíîñòü | Íà÷àëüíûé ñåêòîð | Êîíå÷íûé ñåêòîð
———————————————————————
1 | 0:00.32 | 4:25.23 | 32 | 19929
2 | 4:25.55 | 3:38.67 | 19930 | 36346
3 | 8:04.47 | 3:32.53 | 36347 | 52299
4 | 11:37.25 | 3:42.20 | 52300 | 68969
5 | 15:19.45 | 3:43.12 | 68970 | 85706
6 | 19:02.57 | 3:59.20 | 85707 | 103651
7 | 23:02.02 | 4:01.15 | 103652 | 121741
8 | 27:03.17 | 3:59.63 | 121742 | 139729
9 | 31:03.05 | 4:23.50 | 139730 | 159504
10 | 35:26.55 | 3:12.52 | 159505 | 173956
11 | 38:39.32 | 3:38.50 | 173957 | 190356
12 | 42:18.07 | 4:40.00 | 190357 | 211356
13 | 46:58.07 | 3:54.63 | 211357 | 228969
14 | 50:52.70 | 3:40.27 | 228970 | 245496
15 | 54:33.22 | 3:43.20 | 245497 | 262241
16 | 58:16.42 | 3:42.73 | 262242 | 278964
17 | 61:59.40 | 3:38.55 | 278965 | 295369
18 | 65:38.20 | 3:25.35 | 295370 | 310779
19 | 69:03.55 | 3:09.52 | 310780 | 325006

Õàðàêòåðèñòèêè äèàïàçîíà èçâëå÷åíèÿ è ñîîáùåíèÿ îá îøèáêàõ

Âûáðàííûé äèàïàçîí

Èìÿ ôàéëà Z:\Temp\Modern Talking – Year Of The Dragon (The 9th Album).wav

Ïèêîâûé óðîâåíü 100.0 %
Êà÷åñòâî äèàïàçîíà 99.9 %
CRC òåñòà B6AFFE10
CRC êîïèè B6AFFE10
Êîïèðîâàíèå… OK

Îøèáîê íå ïðîèçîøëî

AccurateRip: ñâîäêà

Òðåê 1 òî÷íîå èçâëå÷åíèå (äîâåðèå 2) [B69D0906]
Òðåê 2 òî÷íîå èçâëå÷åíèå (äîâåðèå 2) [D2098009]
Òðåê 3 òî÷íîå èçâëå÷åíèå (äîâåðèå 2) [50DC87C8]
Òðåê 4 òî÷íîå èçâëå÷åíèå (äîâåðèå 2) [B1E602E2]
Òðåê 5 òî÷íîå èçâëå÷åíèå (äîâåðèå 2) [0A95E645]
Òðåê 6 òî÷íîå èçâëå÷åíèå (äîâåðèå 2) [72F6130F]
Òðåê 7 òî÷íîå èçâëå÷åíèå (äîâåðèå 2) [7367E7A3]
Òðåê 8 òî÷íîå èçâëå÷åíèå (äîâåðèå 2) [3E474E78]
Òðåê 9 òî÷íîå èçâëå÷åíèå (äîâåðèå 2) [943BF469]
Òðåê 10 òî÷íîå èçâëå÷åíèå (äîâåðèå 2) [00D2D457]
Òðåê 11 òî÷íîå èçâëå÷åíèå (äîâåðèå 2) [BFE3AA31]
Òðåê 12 òî÷íîå èçâëå÷åíèå (äîâåðèå 2) [DD5AE451]
Òðåê 13 òî÷íîå èçâëå÷åíèå (äîâåðèå 2) [F1A52D1D]
Òðåê 14 òî÷íîå èçâëå÷åíèå (äîâåðèå 2) [FE4DF682]
Òðåê 15 òî÷íîå èçâëå÷åíèå (äîâåðèå 2) [46B87DCD]
Òðåê 16 òî÷íîå èçâëå÷åíèå (äîâåðèå 2) [D21E2D51]
Òðåê 17 òî÷íîå èçâëå÷åíèå (äîâåðèå 2) [9187325F]
Òðåê 18 òî÷íîå èçâëå÷åíèå (äîâåðèå 2) [444723EE]
Òðåê 19 òî÷íîå èçâëå÷åíèå (äîâåðèå 2) [BF740894]

Âñå òðåêè èçâëå÷åíû òî÷íî

Êîíåö îò÷¸òà

Cue:

REM GENRE EuroDisco
REM DATE 2000
REM DISCID 1010ED13
REM COMMENT “ExactAudioCopy v0.99pb5”
PERFORMER “Modern Talking”
TITLE “Year Of The Dragon (The 9th Album)”
FILE “Modern Talking – Year Of The Dragon (The 9th Album).flac” WAVE
TRACK 01 AUDIO
TITLE “China In Her Eyes (Album Version)”
PERFORMER “Modern Talking”
INDEX 00 00:00:00
INDEX 01 00:00:32
TRACK 02 AUDIO
TITLE “Don’t Take Away My Heart”
PERFORMER “Modern Talking”
INDEX 00 04:23:67
INDEX 01 04:25:55
TRACK 03 AUDIO
TITLE “It’s Your Smile”
PERFORMER “Modern Talking”
INDEX 00 08:03:07
INDEX 01 08:04:47
TRACK 04 AUDIO
TITLE “Cosmic Girl”
PERFORMER “Modern Talking”
INDEX 00 11:35:57
INDEX 01 11:37:25
TRACK 05 AUDIO
TITLE “After Your Love Is Gone”
PERFORMER “Modern Talking”
INDEX 00 15:18:02
INDEX 01 15:19:45
TRACK 06 AUDIO
TITLE “Girl Out Of My Dreams”
PERFORMER “Modern Talking”
INDEX 00 19:01:15
INDEX 01 19:02:57
TRACK 07 AUDIO
TITLE “My Lonely Girl”
PERFORMER “Modern Talking”
INDEX 00 23:00:32
INDEX 01 23:02:02
TRACK 08 AUDIO
TITLE “No Face, No Name, No Number”
PERFORMER “Modern Talking”
INDEX 00 27:01:50
INDEX 01 27:03:17
TRACK 09 AUDIO
TITLE “Can’t Let You Go”
PERFORMER “Modern Talking”
INDEX 00 31:01:45
INDEX 01 31:03:05
TRACK 10 AUDIO
TITLE “Part Time Lover”
PERFORMER “Modern Talking”
INDEX 00 35:25:12
INDEX 01 35:26:55
TRACK 11 AUDIO
TITLE “Time Is On My Side”
PERFORMER “Modern Talking”
INDEX 00 38:37:52
INDEX 01 38:39:32
TRACK 12 AUDIO
TITLE “I’ll Never Fall In Love Again”
PERFORMER “Modern Talking”
INDEX 00 42:16:37
INDEX 01 42:18:07
TRACK 13 AUDIO
TITLE “Avec Toi”
PERFORMER “Modern Talking”
INDEX 00 46:56:42
INDEX 01 46:58:07
TRACK 14 AUDIO
TITLE “I’m Not Guilty”
PERFORMER “Modern Talking”
INDEX 00 50:49:57
INDEX 01 50:52:70
TRACK 15 AUDIO
TITLE “Fight For The Right Love”
PERFORMER “Modern Talking”
INDEX 00 54:31:57
INDEX 01 54:33:22
TRACK 16 AUDIO
TITLE “Walking In The Rain Of Paris”
PERFORMER “Modern Talking”
INDEX 00 58:15:07
INDEX 01 58:16:42
TRACK 17 AUDIO
TITLE “Fly To The Moon”
PERFORMER “Modern Talking”
INDEX 00 61:58:00
INDEX 01 61:59:40
TRACK 18 AUDIO
TITLE “Love Is Forever”
PERFORMER “Modern Talking”
INDEX 00 65:36:57
INDEX 01 65:38:20
TRACK 19 AUDIO
TITLE “China In Her Eyes (feat. Eric Singleton)”
PERFORMER “Modern Talking”
INDEX 00 69:02:17
INDEX 01 69:03:55

Format: FLAC
Bitrate: lossless
Größe: 554 MB

Download

Share-Online, Uploaded

http://www.relink.us/f/370bb641f0d0d55feb714876934e97

Nur 1x gepackt, kein Passwort, Mirror kompatibel