Tracklist:

01. Jennifer Lost The War
02. Elders
03. Out On Patrol
04. Crossroads
05. TDemons
06. Beheaded
07. Tehran
08. A Thousand Days
09. Blackball
10. I’ll Be Waiting
11. Kill The President

Log:

EAC extraction logfile from 18. July 2007, 11:51 for CD
The Offspring / The Offspring

Used drive : _NEC DVD_RW ND-3550A Adapter: 1 ID: 0
Read mode : Secure with NO C2, accurate stream, disable cache
Read offset correction : 48
Overread into Lead-In and Lead-Out : No

Used output format : C:\Program Files (x86)\FLAC\flac.exe (User Defined Encoder)
128 kBit/s
Additional command line options : -V -8 -T “artist=%a” -T “title=%t” -T “album=%g” -T “date=%y” -T “tracknumber=%n” -T “genre=%m” %s

Other options :
Fill up missing offset samples with silence : Yes
Delete leading and trailing silent blocks : No
Native Win32 interface for Win NT & 2000

Track 1
Filename C:\Documents and Settings\Administrator\Desktop\Seeding\The Offspring – The Offspring\01 – Jennifer Lost The War.wav

Pre-gap length 0:00:02.00

Peak level 100.0 %
Track quality 100.0 %
Test CRC C06CEB84
Copy CRC C06CEB84
Copy OK

Track 2
Filename C:\Documents and Settings\Administrator\Desktop\Seeding\The Offspring – The Offspring\02 – Elders.wav

Pre-gap length 0:00:00.13

Peak level 100.0 %
Track quality 100.0 %
Test CRC 71E34366
Copy CRC 71E34366
Copy OK

Track 3
Filename C:\Documents and Settings\Administrator\Desktop\Seeding\The Offspring – The Offspring\03 – Out On Patrol.wav

Pre-gap length 0:00:00.13

Peak level 100.0 %
Track quality 99.5 %
Test CRC CD206520
Copy CRC CD206520
Copy OK

Track 4
Filename C:\Documents and Settings\Administrator\Desktop\Seeding\The Offspring – The Offspring\04 – Crossroads.wav

Peak level 100.0 %
Track quality 100.0 %
Test CRC 86549DA2
Copy CRC 86549DA2
Copy OK

Track 5
Filename C:\Documents and Settings\Administrator\Desktop\Seeding\The Offspring – The Offspring\05 – Demons.wav

Pre-gap length 0:00:01.01

Peak level 100.0 %
Track quality 99.9 %
Test CRC 06F69228
Copy CRC 06F69228
Copy OK

Track 6
Filename C:\Documents and Settings\Administrator\Desktop\Seeding\The Offspring – The Offspring\06 – Beheaded.wav

Pre-gap length 0:00:00.05

Peak level 100.0 %
Track quality 100.0 %
Test CRC 07FBC3A4
Copy CRC 07FBC3A4
Copy OK

Track 7
Filename C:\Documents and Settings\Administrator\Desktop\Seeding\The Offspring – The Offspring\07 – Tehran.wav

Pre-gap length 0:00:14.84

Peak level 100.0 %
Track quality 100.0 %
Test CRC 3B03251A
Copy CRC 3B03251A
Copy OK

Track 8
Filename C:\Documents and Settings\Administrator\Desktop\Seeding\The Offspring – The Offspring\08 – A Thousand Days.wav

Peak level 100.0 %
Track quality 100.0 %
Test CRC A1F7CE77
Copy CRC A1F7CE77
Copy OK

Track 9
Filename C:\Documents and Settings\Administrator\Desktop\Seeding\The Offspring – The Offspring\09 – Blackball.wav

Pre-gap length 0:00:00.13

Peak level 100.0 %
Track quality 99.9 %
Test CRC 254F3559
Copy CRC 254F3559
Copy OK

Track 10
Filename C:\Documents and Settings\Administrator\Desktop\Seeding\The Offspring – The Offspring\10 – I’ll Be Waiting.wav

Peak level 100.0 %
Track quality 100.0 %
Test CRC 85960D30
Copy CRC 85960D30
Copy OK

Track 11
Filename C:\Documents and Settings\Administrator\Desktop\Seeding\The Offspring – The Offspring\11 – Kill The President.wav

Peak level 100.0 %
Track quality 100.0 %
Test CRC 8F349950
Copy CRC 8F349950
Copy OK

No errors occured

End of status report

Cue:

REM GENRE “Punk Rock”
REM DATE 1995
REM DISCID AC075E0B
REM COMMENT “ExactAudioCopy v0.95b4”
PERFORMER “The Offspring”
TITLE “The Offspring”
FILE “01 – Jennifer Lost The War.wav” WAVE
TRACK 01 AUDIO
TITLE “Jennifer Lost The War”
PERFORMER “The Offspring”
INDEX 01 00:00:00
TRACK 02 AUDIO
TITLE “Elders”
PERFORMER “The Offspring”
INDEX 00 02:35:10
FILE “02 – Elders.wav” WAVE
INDEX 01 00:00:00
TRACK 03 AUDIO
TITLE “Out On Patrol”
PERFORMER “The Offspring”
INDEX 00 02:10:70
FILE “03 – Out On Patrol.wav” WAVE
INDEX 01 00:00:00
FILE “04 – Crossroads.wav” WAVE
TRACK 04 AUDIO
TITLE “Crossroads”
PERFORMER “The Offspring”
INDEX 01 00:00:00
TRACK 05 AUDIO
TITLE “Demons”
PERFORMER “The Offspring”
INDEX 00 02:47:44
FILE “05 – Demons.wav” WAVE
INDEX 01 00:00:00
TRACK 06 AUDIO
TITLE “Beheaded”
PERFORMER “The Offspring”
INDEX 00 03:10:16
FILE “06 – Beheaded.wav” WAVE
INDEX 01 00:00:00
TRACK 07 AUDIO
TITLE “Tehran”
PERFORMER “The Offspring”
INDEX 00 02:37:19
FILE “07 – Tehran.wav” WAVE
INDEX 01 00:00:00
FILE “08 – A Thousand Days.wav” WAVE
TRACK 08 AUDIO
TITLE “A Thousand Days”
PERFORMER “The Offspring”
INDEX 01 00:00:00
TRACK 09 AUDIO
TITLE “Blackball”
PERFORMER “The Offspring”
INDEX 00 02:11:15
FILE “09 – Blackball.wav” WAVE
INDEX 01 00:00:00
FILE “10 – I’ll Be Waiting.wav” WAVE
TRACK 10 AUDIO
TITLE “I’ll Be Waiting”
PERFORMER “The Offspring”
INDEX 01 00:00:00
FILE “11 – Kill The President.wav” WAVE
TRACK 11 AUDIO
TITLE “Kill The President”
PERFORMER “The Offspring”
INDEX 01 00:00:00

Format: FLAC
Bitrate: lossless
Größe: 222 MB

Download

Share-Online, Uploaded

http://www.relink.us/f/43693d456a36f27b435e0617228a1f

Nur 1x gepackt, kein Passwort, Mirror kompatibel