Minions.2015.German.AC3.BDRiP.x264-XDD

Im Verlauf der Erdgeschichte haben die Minions stets den schlimmsten Bösewichten gedient – auch wenn diese ihre Handlanger oft nicht überleben. Jahre schon darben die Minions, weil sie keinen neuen Meister finden. Also treten Kevin, Stuart und Bob im Jahr 1968 – oder 42 Jahre vor Gru – eine Reise um den halben Weltball an, um sich in Orlando auf der größten Messe für Schurken dem ersten weiblichen Superbösewicht anzuschließen – Scarlet Overkill. Die Dame ist allerdings nicht nur böse, sondern auch anspruchsvoll.

Gleich mit der ersten Marke gelang Illumination 2010 der große Wurf, “Ich – Einfach unverbesserlich”: Nun ist Zeit für das erste Spinoff mit den Publikumslieblingen Minions, die schon bisher stets die Lacher auf ihrer Seite hatten.

Genre: Animation
Laufzeit: 91 Min.
Sprache/n: Deutsch
Video Stream: BD-Rip
Audio Stream: Dolby Digital 5.1
Video Codec: MPEG-4 H.264 / AVC
Format: MKV
Größe: 1000 MB
Parts: 2

NFO

Code:

Video: AVC, 720×388, 23.976 fps, 1109 Kbps
Audio: AC-3 , 48.0 KHz, 6 channels, 448 Kbps

MEDIAINFO

Code:

General
Unique ID                                : 184933627283666832542418009525524657602 (0x8B20EBC9FF2CD79081F15E18E15875C2)
Complete name                            : XDDM1NX264DD51KLFJDKBBNSHMKD/xdd-m1n-x264-dd51.mkv
Format                                  : Matroska
Format version                          : Version 4 / Version 2
File size                                : 1.01 GiB
Duration                                : 01:30:58
Overall bit rate                        : 1 588 Kbps
Encoded date                            : UTC 2015-10-26 06:03:29
Writing application                      : mkvmerge v7.0.0 (‘Where We Going’) 64bit built on Jun  9 2014 15:16:27
Writing library                          : libebml v1.3.0 + libmatroska v1.4.1
DURATION                                : 01:30:58.080000000
NUMBER_OF_FRAMES                        : 170565
NUMBER_OF_BYTES                          : 305652480
_STATISTICS_WRITING_APP                  : mkvmerge v7.0.0 (‘Where We Going’) 64bit built on Jun  9 2014 15:16:27
_STATISTICS_WRITING_DATE_UTC            : 2015-10-26 06:03:29
_STATISTICS_TAGS                        : BPS DURATION NUMBER_OF_FRAMES NUMBER_OF_BYTES

Video
ID                                      : 1
Format                                  : AVC
Format/Info                              : Advanced Video Codec
Format profile                          : High@L3.1
Format settings, CABAC                  : Yes
Format settings, ReFrames                : 10 frames
Codec ID                                : V_MPEG4/ISO/AVC
Duration                                : 01:30:58
Bit rate                                : 1 109 Kbps
Width                                    : 720 pixels
Height                                  : 388 pixels
Display aspect ratio                    : 1.85:1
Frame rate mode                          : Constant
Frame rate                              : 23.976 fps
Color space                              : YUV
Chroma subsampling                      : 4:2:0
Bit depth                                : 8 bits
Scan type                                : Progressive
Bits/(Pixel*Frame)                      : 0.166
Stream size                              : 721 MiB (70%)
Writing library                          : x264 core 148 r2638 7599210
Encoding settings                        : cabac=1 / ref=10 / deblock=1:2:1 / analyse=0x3:0x113 / me=umh / subme=8 / psy=1 / psy_rd=0.60:0.00 / mixed_ref=1 / me_range=16 / chroma_me=1 / trellis=1 / 8x8dct=1 / cqm=0 / deadzone=21,11 / fast_pskip=1 / chroma_qp_offset=-2 / threads=12 / lookahead_threads=3 / sliced_threads=0 / nr=0 / decimate=1 / interlaced=0 / bluray_compat=0 / constrained_intra=0 / bframes=5 / b_pyramid=2 / b_adapt=2 / b_bias=0 / direct=3 / weightb=1 / open_gop=0 / weightp=2 / keyint=250 / keyint_min=23 / scenecut=40 / intra_refresh=0 / rc_lookahead=50 / rc=crf / mbtree=1 / crf=19.0 / qcomp=0.60 / qpmin=0 / qpmax=69 / qpstep=4 / ip_ratio=1.40 / aq=1:0.60
Language                                : English
Default                                  : Yes
Forced                                  : No
Matrix coefficients                      : BT.709
Color range                              : Limited
_STATISTICS_WRITING_APP                  : mkvmerge v7.0.0 (‘Where We Going’) 64bit built on Jun  9 2014 15:16:27
_STATISTICS_WRITING_DATE_UTC            : 2015-10-26 06:03:29
_STATISTICS_TAGS                        : BPS DURATION NUMBER_OF_FRAMES NUMBER_OF_BYTES
DURATION                                : 01:30:57.962000000
NUMBER_OF_FRAMES                        : 130860
NUMBER_OF_BYTES                          : 776785770

Audio
ID                                      : 2
Format                                  : AC-3
Format/Info                              : Audio Coding 3
Mode extension                          : CM (complete main)
Format settings, Endianness              : Big
Codec ID                                : A_AC3
Duration                                : 01:30:58
Bit rate mode                            : Constant
Bit rate                                : 448 Kbps
Channel(s)                              : 6 channels
Channel positions                        : Front: L C R, Side: L R, LFE
Sampling rate                            : 48.0 KHz
Bit depth                                : 16 bits
Compression mode                        : Lossy
Stream size                              : 291 MiB (28%)
Title                                    : German DD 5.1 @448 kb/s
Language                                : German
Default                                  : Yes
Forced                                  : Yes

SAMPLE


Uploaded.net


Share-online.biz






Search keywords