Akagami no Shirayukihime
赤髪の白雪姫
Snow White with the Red Hair
Die rothaarige Schneeprinzessin, Red-haired Princess Snow White

Handlung

Shirayuki, ein junges Mädchen, wurde mit einzigartigem apfelrotem Haar geboren. Sie trifft einen berühmten, aber törichten Prinzen namens Raji, der sich sofort in Shirayuki verliebt und will, dass diese seine Konkubine wird. Shirayuki schneidet ihre Haare kürzer und flüchtet in das benachbarte Land. Als sie durch die Wälder streift, begegnet sie einem Jungen namens Zen, dessen Wunden sie heilt, der dann aber von einem für Shirayuki bestimmten Apfel vergiftet wird. Prinz Raji schickt unterdessen seine Handlager aus, um sich auf die Suche nach Shirayuki zu machen. Was wird wohl aus Shirayuki? Und was für eine Person ist Zen in Wirklichkeit?

Format: mp4
Dauer: ca. 24 min
Größe: ca. 245 MB (gesamt: 2,87 GB)
Episodenanzahl: 12/12
Sprache: Japanisch
Untertitel: Deutsch
Group: [MGS]
Hoster: Uploaded.net & Share-Online.biz
kein PW

Screenshots & MediaInfo

Code:

General
Complete name              : [MGS]_-_Akagami_no_Shirayuki-hime_-_Episode_01v2_-_[576C1747].mp4
Format                      : MPEG-4
Format profile              : Base Media
Codec ID                    : isom
File size                  : 245 MiB
Duration                    : 24mn 29s
Overall bit rate mode      : Variable
Overall bit rate            : 1 399 Kbps
Encoded date                : UTC 2015-10-25 11:29:35
Tagged date                : UTC 2015-10-25 11:29:35

Video
ID                          : 1
Format                      : AVC
Format/Info                : Advanced Video Codec
Format profile              : High@L4
Format settings, CABAC      : Yes
Format settings, ReFrames  : 8 frames
Codec ID                    : avc1
Codec ID/Info              : Advanced Video Coding
Duration                    : 24mn 29s
Bit rate                    : 1 268 Kbps
Maximum bit rate            : 9 426 Kbps
Width                      : 1 280 pixels
Height                      : 720 pixels
Display aspect ratio        : 16:9
Frame rate mode            : Constant
Frame rate                  : 23.976 fps
Color space                : YUV
Chroma subsampling          : 4:2:0
Bit depth                  : 8 bits
Scan type                  : Progressive
Bits/(Pixel*Frame)          : 0.057
Stream size                : 222 MiB (91%)
Writing library            : x264 core 146 r2538 121396c
Encoding settings          : cabac=1 / ref=8 / deblock=0:0:0 / analyse=0x3:0x113 / me=umh / subme=7 / psy=1 / psy_rd=1.00:0.00 / mixed_ref=1 / me_range=16 / chroma_me=1 / trellis=1 / 8x8dct=1 / cqm=0 / deadzone=21,11 / fast_pskip=1 / chroma_qp_offset=-2 / threads=6 / lookahead_threads=1 / sliced_threads=0 / nr=0 / decimate=1 / interlaced=0 / bluray_compat=0 / constrained_intra=0 / bframes=3 / b_pyramid=2 / b_adapt=2 / b_bias=0 / direct=1 / weightb=1 / open_gop=0 / weightp=2 / keyint=240 / keyint_min=23 / scenecut=40 / intra_refresh=0 / rc_lookahead=40 / rc=2pass / mbtree=1 / bitrate=1268 / ratetol=1.0 / qcomp=0.60 / qpmin=10 / qpmax=51 / qpstep=4 / cplxblur=20.0 / qblur=0.5 / ip_ratio=1.40 / aq=1:0.00
Encoded date                : UTC 2015-10-25 09:54:02
Tagged date                : UTC 2015-10-25 11:29:38

Audio
ID                          : 2
Format                      : AAC
Format/Info                : Advanced Audio Codec
Format profile              : HE-AAC / LC
Codec ID                    : 40
Duration                    : 24mn 29s
Bit rate mode              : Variable
Bit rate                    : 128 Kbps
Maximum bit rate            : 157 Kbps
Channel(s)                  : 2 channels
Channel positions          : Front: L R
Sampling rate              : 48.0 KHz / 24.0 KHz
Compression mode            : Lossy
Stream size                : 22.4 MiB (9%)
Encoded date                : UTC 2015-10-25 11:29:00
Tagged date                : UTC 2015-10-25 11:29:38

Alle Mirrors untereinander kompatibel
Folgen einzeln ladbar

Download

Download via ul.to

Download via share-online.biz