Título original
White Zombie
Año
1932
Duración
73 min.
País
Estados Unidos Estados Unidos
Director
Victor Halperin
Guión
Garnett Weston
Música
Guy Bevier Williams
Fotografía
Arthur Martinelli (B&W)
Reparto
Bela Lugosi, Madge Bellamy, Robert Frazer, Brandong Hurst, John Harron, Joseph Cawthorn
Productora
Halperin Productions
Género
Terror. Fantástico | Zombis. Vudú. Película de culto
Sinopsis
Una pareja de enamorados viaja a Haití invitada por un misterioso hombre que sólo pretende conseguir a la chica. Para alcanzar su objetivo no duda en pedir ayuda a un siniestro personaje, llamado Legendre, que convierte a las personas en zombis.

Spoiler

General
Unique ID : 171628383561734668312730834390849796289 (0x811E6CA04A41AB2AA7E3A9C0519DB8C1)
Complete name : G:\Downloads\La legión de los hombres sin alma1932.m720p.Dual ll (1).mkv
Format : Matroska
Format version : Version 4 / Version 2
File size : 3.31 GiB
Duration : 1h 7mn
Overall bit rate : 7 060 Kbps
Encoded date : UTC 2015-01-31 06:40:38
Writing application : mkvmerge v7.1.0 (‘Good Love’) 64bit built on Jul 27 2014 13:06:55
Writing library : libebml v1.3.0 + libmatroska v1.4.1
DURATION : 01:06:36.858000000
NUMBER_OF_FRAMES : 444
NUMBER_OF_BYTES : 14573
_STATISTICS_WRITING_APP : mkvmerge v7.1.0 (‘Good Love’) 64bit built on Jul 27 2014 13:06:55
_STATISTICS_WRITING_DATE_UTC : 2015-01-31 06:40:38
_STATISTICS_TAGS : BPS DURATION NUMBER_OF_FRAMES NUMBER_OF_BYTES
Attachment : Yes / Yes / Yes / Yes

Video
ID : 1
Format : AVC
Format/Info : Advanced Video Codec
Format profile : High@L4.1
Format settings, CABAC : Yes
Format settings, ReFrames : 12 frames
Codec ID : V_MPEG4/ISO/AVC
Duration : 1h 7mn
Bit rate : 6 543 Kbps
Width : 942 pixels
Height : 720 pixels
Display aspect ratio : 4:3
Frame rate mode : Constant
Frame rate : 23.976 fps
Color space : YUV
Chroma subsampling : 4:2:0
Bit depth : 8 bits
Scan type : Progressive
Bits/(Pixel*Frame) : 0.402
Stream size : 3.01 GiB (91%)
Writing library : x264 core 130 r2273 b3065e6
Encoding settings : cabac=1 / ref=12 / deblock=1:-2:-2 / analyse=0x3:0x133 / me=umh / subme=10 / psy=1 / psy_rd=1.00:0.25 / mixed_ref=1 / me_range=24 / chroma_me=1 / trellis=2 / 8x8dct=1 / cqm=0 / deadzone=6,6 / fast_pskip=1 / chroma_qp_offset=-4 / threads=6 / lookahead_threads=1 / sliced_threads=0 / nr=0 / decimate=0 / interlaced=0 / bluray_compat=0 / constrained_intra=0 / bframes=8 / b_pyramid=2 / b_adapt=2 / b_bias=0 / direct=3 / weightb=1 / open_gop=0 / weightp=2 / keyint=250 / keyint_min=23 / scenecut=40 / intra_refresh=0 / rc_lookahead=60 / rc=2pass / mbtree=1 / bitrate=6543 / ratetol=1.0 / qcomp=0.80 / qpmin=0 / qpmax=69 / qpstep=4 / cplxblur=20.0 / qblur=0.5 / ip_ratio=1.10 / aq=1:0.50
Language : English
Default : Yes
Forced : No
DURATION : 01:07:09.609000000
NUMBER_OF_FRAMES : 96614
NUMBER_OF_BYTES : 3296024724
_STATISTICS_WRITING_APP : mkvmerge v7.1.0 (‘Good Love’) 64bit built on Jul 27 2014 13:06:55
_STATISTICS_WRITING_DATE_UTC : 2015-01-31 06:40:38
_STATISTICS_TAGS : BPS DURATION NUMBER_OF_FRAMES NUMBER_OF_BYTES

Audio #1
ID : 2
Format : AC-3
Format/Info : Audio Coding 3
Mode extension : CM (complete main)
Format settings, Endianness : Big
Codec ID : A_AC3
Duration : 1h 7mn
Bit rate mode : Constant
Bit rate : 320 Kbps
Channel(s) : 2 channels
Channel positions : Front: L R
Sampling rate : 48.0 KHz
Bit depth : 16 bits
Compression mode : Lossy
Delay relative to video : 50ms
Stream size : 154 MiB (5%)
Language : English
Default : Yes
Forced : No

Audio #2
ID : 3
Format : AC-3
Format/Info : Audio Coding 3
Mode extension : CM (complete main)
Format settings, Endianness : Big
Codec ID : A_AC3
Duration : 1h 7mn
Bit rate mode : Constant
Bit rate : 192 Kbps
Channel(s) : 2 channels
Channel positions : Front: L R
Sampling rate : 48.0 KHz
Bit depth : 16 bits
Compression mode : Lossy
Stream size : 92.2 MiB (3%)
Language : Spanish
Default : No
Forced : No

Text
ID : 4
Format : UTF-8
Codec ID : S_TEXT/UTF8
Codec ID/Info : UTF-8 Plain Text
Language : Spanish
Default : Yes
Forced : No

Servidores
1fichier/uploaded.to/filefactory[/tusfiles/cloudzilla
cortado con winrar

http://www.keeplinks.eu/p/54cc7eda43697
http://www.relink.us/f/d3e07fa3f78434fb0d6c8302d33a9a